FatalZ | Hack Forum - illegal Topluluk - Security Platform

FatalZ.ORG, Sınır Topraklarına Hoş geldiniz! Lütfen Giriş Yapın ya da Kayıt Olun.

Fritzie - Der Himmel muss warten.S1.E1.Aus dem Gleichgewicht.720p.WEB-DL.x264[AnoX]

anox

bortecine
Defacer Crew
Durum
Mesajlar
159
Katılım
23 Eki 2019
Tepki Puanı
105
Puanlar
3,800
Konum
Lviv
Ticaret Puanı: 0 / 0 / 0
me1cXC.jpg

Fritzie - Der Himmel muss warten.S1.E1.Aus dem Gleichgewicht.720p.WEB-DL.x264[AnoX]


SERIES INFO
Genre:
Drama, Family
Stars: 6,9
Plot: The story circles around a school teacher woman in her 30's, learning out of nothing that she is diagnosed with breast cancer.

EPISODE INFO
Title:
Aus dem Gleichgewicht

Included subtitles
German, English, Turkish

SCREENSHOTS / THUMBNAILS
MBG7pK.jpg
MEDIAINFO
General
Complete name : C:\Torrent\Fritzie - Der Himmel muss warten\S1\Fritzie - Der Himmel muss warten.S1.E1.Aus dem Gleichgewicht.720p.WEB-DL.x264[AnoX]\Fritzie - Der Himmel muss warten.S1.E1.Aus dem Gleichgewicht.720p.WEB-DL.x264[AnoX].mp4
Format : MPEG-4
Format profile : Base Media / Version 2
Codec ID : mp42 (isom/mp42)
File size : 866 MiB
Duration : 44 min 25 s
Overall bit rate mode : Variable
Overall bit rate : 2 724 kb/s
Encoded date : UTC 2020-09-17 09:16:26
Tagged date : UTC 2020-09-17 09:16:26

Video
ID : 1
Format : AVC
Format/Info : Advanced Video Codec
Format profile : High@L4
Format settings : CABAC / 5 Ref Frames
Format settings, CABAC : Yes
Format settings, Reference frames : 5 frames
Format settings, GOP : M=2, N=100
Codec ID : avc1
Codec ID/Info : Advanced Video Coding
Duration : 44 min 25 s
Bit rate mode : Variable
Bit rate : 2 554 kb/s
Maximum bit rate : 3 199 kb/s
Width : 1 280 pixels
Height : 720 pixels
Display aspect ratio : 16:9
Frame rate mode : Constant
Frame rate : 50.000 FPS
Color space : YUV
Chroma subsampling : 4:2:0
Bit depth : 8 bits
Scan type : Progressive
Bits/(Pixel*Frame) : 0.055
Stream size : 812 MiB (94%)
Language : German
Encoded date : UTC 2020-09-17 09:16:26
Tagged date : UTC 2020-09-17 09:16:31
Color range : Limited
Color primaries : BT.709
Transfer characteristics : BT.709
Matrix coefficients : BT.709
Codec configuration box : avcC

Audio
ID : 2
Format : AAC LC
Format/Info : Advanced Audio Codec Low Complexity
Codec ID : mp4a-40-2
Duration : 44 min 25 s
Bit rate mode : Constant
Bit rate : 160 kb/s
Channel(s) : 2 channels
Channel layout : L R
Sampling rate : 48.0 kHz
Frame rate : 46.875 FPS (1024 SPF)
Compression mode : Lossy
Stream size : 50.8 MiB (6%)
Language : German
Encoded date : UTC 2020-09-17 09:16:26
Tagged date : UTC 2020-09-17 09:16:31

Download Link:
Gizli içeriği görüntüleme kayıtlı kullanıcılar için mevcuttur!

 
Son düzenleme:
SPAM MESAJ ATMAK YASAKTIR!
  • Örnek: teşekkürler, sağol, çok iyi, asdqwe, eline sağlık, ty, eyv vb!
  • Örnek: Aynı mesajı sürekli olarak yazmak! teşekkürler, tşk gibi!
  • Başkalarının mesajlarını kopyalayıp aynısını yazmak yasaktır.
  • Bilginizin olmadığı konulara yorum sayınız artsın diye mesaj atmak yasaktır!
  • Yorum yaparken kendi fikrinizi yazınız! Spam mesaj atanlar yasaklanacaktır!
  • Konulara spam mesaj atan görürseniz RAPOR tuşu ile bize bildiriniz!

  • Hesap Yükseltme butonundan hesabınızı yükselterek yeni üyelere özel kısıtlamalardan kurtulabilirsiniz.

Konuyu Kimler Görüntülüyor?